Nous étions soldats (2002) [FRENCH] [BluRay 720p]

Nous étions soldats (2002) [FRENCH] [BluRay 720p]

Description du Fichier

Le dimanche 14 novembre 1965, à 10h48, au Viêt-nam, le lieutenant-colonel Harold C. Moore, instructeur à Fort Benning, et 400 soldats américains sont parachutés sur la zone dit d'X-Ray, dans la vallée de Ia Drang. Celle-ci, surnommée Vallée de la Mort par les Vietnamiens, est contrôlée par les forces ennemies.Homme de parole, Moore avance le premier sur le champ de bataille. Lui et ses hommes se retrouvent rapidement encerclés par plus de 2 000 militaires du Viêt-Cong.

Origine du film : Américain, Allemand
Réalisateur : Randall Wallace
Acteurs : Mel Gibson, Madeleine Stowe, Greg Kinnearplus
Genre : Guerre, Historique, Action
Durée : 2h 19min
Date de sortie : 17 avril 2002
Distributeur : Bac Films
Critiques spectateurs : 3,2
Critiques Presse : Nous étions soldats (2002) [FRENCH] [BluRay 720p] 2,7
Bande annonce : Cliquez ici pour visualiser la bande annonce


Qualité : HDRip-720p
Format : MKV
Langue : FrançaisNous étions soldats (2002) [FRENCH] [BluRay 720p]
Sous-titre : FrançaisNous étions soldats (2002) [FRENCH] [BluRay 720p]
Découper avec : WinRar
Nombre de fichiers : 7
Taille totale : 6.56 Go
Nom de la release :We.Were.Soldiers.2002.FRENCH.720p.BluRay.x264-FHD

Essayer de Télécharger Nous étions soldats (2002) [FRENCH] [BluRay 720p] avec 100MB/s

Téléchargez à haut débit 100MB/s !!

Liens de Téléchargement

http://rapidgator.net/file/7ee198616979418273718be322c4f462/720pweweresoldiersFRENCH.part1.rar.html
http://rapidgator.net/file/fde0e7556789fb7cb5dabe9222082e4f/720pweweresoldiersFRENCH.part2.rar.html
http://rapidgator.net/file/a8fdb94f7bb80e17bfdbfc54b07dd56c/720pweweresoldiersFRENCH.part3.rar.html
http://rapidgator.net/file/a904120e19df3678ac70d13cbedf1739/720pweweresoldiersFRENCH.part4.rar.html
http://rapidgator.net/file/f9d02846c1226a318821e8cf10ad0bad/720pweweresoldiersFRENCH.part5.rar.html
http://rapidgator.net/file/41aeae38936225a46e5690a5b6b857f4/720pweweresoldiersFRENCH.part6.rar.html
http://rapidgator.net/file/f494c649a9426c5e54945fdb949badcd/720pweweresoldiersFRENCH.part7.rar.html


http://turbobit.net/xhw0c5ku56ov.html
http://turbobit.net/u2edqu6023qq.html
http://turbobit.net/7uvgj017lngy.html
http://turbobit.net/ly78ezr1ilxr.html
http://turbobit.net/dn11t779mtg2.html
http://turbobit.net/ye63v46ogofk.html
http://turbobit.net/6mcop8bwmznz.html


http://ul.to/33kqd5wn
http://ul.to/tlvpkxa2
http://ul.to/0ug1gtan
http://ul.to/1mxx1cz0
http://ul.to/f11idps4
http://ul.to/dqz4w2iz
http://ul.to/odj14f6u


http://uptobox.com/s66rya10aef1
http://uptobox.com/b0b11wrwe9t7
http://uptobox.com/l2qfw8acjxuf
http://uptobox.com/08ylis4kj7ww
http://uptobox.com/21fu9nltjtej
http://uptobox.com/g540gb80cphh
http://uptobox.com/lpzksvu2bu0h


http://emtgpn.1fichier.com/
http://z0wx4m.1fichier.com/
http://c3jjrc.1fichier.com/
http://f3wdy8.1fichier.com/
http://77ejl8.1fichier.com/
http://4cuxt2.1fichier.com/
http://tgyavf.1fichier.com/


http://dl.free.fr/gMY5hLSj8
http://dl.free.fr/k0qi0RHSC
http://dl.free.fr/jY4J4aZt3
http://dl.free.fr/bO7u27F1n
http://dl.free.fr/mFQU6VCJ1
http://dl.free.fr/nf5djMIKu
http://dl.free.fr/bqU0edXwd


Un Seul Lien


http://uptobox.com/tmpsgyi6fvmc
http://cr8vsi.1fichier.com/
http://turbobit.net/igmh7qdrjt2a.html

NFO

We.Were.Soldiers.2002.FRENCH.720p.BluRay.x264-FHD.mkv
Format : Matroska
Format version : Version 2
File size : 6.56 GiB
Duration : 2h 18mn
Overall bit rate : 6 783 Kbps
Encoded date : UTC 2009-06-18 10:23:42
Writing application : mkvmerge v2.9.0 ('Moanin'') built on May 22 2009 17:46:31
Writing library : libebml v0.7.7 + libmatroska v0.8.1

Video
ID : 1
Format : AVC
Format/Info : Advanced Video Codec
Format profile : High@L4.1
Format settings, CABAC : Yes
Format settings, ReFrames : 5 frames
Codec ID : V_MPEG4/ISO/AVC
Duration : 2h 18mn
Bit rate : 5 272 Kbps
Width : 1 280 pixels
Height : 544 pixels
Display aspect ratio : 2.35:1
Frame rate : 23.976 fps
Color space : YUV
Chroma subsampling : 4:2:0
Bit depth : 8 bits
Scan type : Progressive
Bits/(Pixel*Frame) : 0.316
Stream size : 4.97 GiB (76%)
Title : Video
Writing library : x264 core 67 r1165M 6841c5e
Encoding settings : cabac=1 / ref=5 / deblock=1:0:0 / analyse=0x3:0x2 / me=umh / subme=7 / psy_rd=1.0:0.0 / mixed_ref=1 / me_range=16 / chroma_me=1 / trellis=1 / 8x8dct=1 / cqm=0 / deadzone=21,11 / chroma_qp_offset=-2 / threads=6 / nr=0 / decimate=1 / mbaff=0 / bframes=3 / b_pyramid=1 / b_adapt=1 / b_bias=0 / direct=1 / wpredb=1 / keyint=250 / keyint_min=25 / scenecut=40 / rc=2pass / bitrate=5272 / ratetol=1.0 / qcomp=0.60 / qpmin=10 / qpmax=51 / qpstep=4 / cplxblur=20.0 / qblur=0.5 / ip_ratio=1.40 / pb_ratio=1.30 / aq=1:1.00
Language : French
Default : Yes
Forced : No

Audio
ID : 2
Format : DTS
Format/Info : Digital Theater Systems
Format profile : ES
Codec ID : A_DTS
Duration : 2h 18mn
Bit rate mode : Constant
Bit rate : 1 510 Kbps
Channel(s) : 6 channels
Channel positions : Front: L C R, Side: L R, LFE
Sampling rate : 48.0 KHz
Bit depth : 16 bits
Compression mode : Lossy
Stream size : 1.46 GiB (22%)
Title : French DTS
Language : French
Default : Yes
Forced : No

Text
ID : 3
Format : UTF-8
Codec ID : S_TEXT/UTF8
Codec ID/Info : UTF-8 Plain Text
Title : Forced
Language : French
Default : Yes
Forced : No

Dear visitor!

Dear visitor, you are viewing this page as unregistered user.
We would recommend you to Register or Login to website under your name.
Go Back

Related Movies

Mission évasion (2002) [BluRay 720p - 1080p]

Mission évasion (2002) [BluRay 720p - 1080p]

VILLO Currently Offline Offline | enregistré: 17.10.2012 | messages: 0 | Commentaires: 221 | 4 Octobre 2013 14:08
merci a quand la version 1080p

Information

Les membres de Guests ne peuvent laisser de commentaires.
Régie publicitaire Pubdirecte
Votre site en popunder ici